#TITLE:4 minutes;
#SUBTITLE:;
#ARTIST:Madonna / Justin / Timbaland;
#TITLETRANSLIT:;
#SUBTITLETRANSLIT:;
#ARTISTTRANSLIT:;
#CREDIT:;
#BANNER:madonna-bn.jpg;
#BACKGROUND:madonna-bg.jpg;
#LYRICSPATH:;
#CDTITLE:;
#MUSIC:madonna-4 minutes.mp3;
#OFFSET:0.000;
#SAMPLESTART:99.980;
#SAMPLELENGTH:12.000;
#SELECTABLE:YES;
#BPMS:0.000=113.000,126.000=114.400,128.000=113.000,136.500=226.001,138.500=113.000,152.500=226.000,154.500=113.000,200.500=226.000,202.500=113.000,216.500=226.000,218.500=113.000,284.000=226.000,290.000=451.997;
#STOPS:0.000=0.040
,138.500=0.520
,154.500=0.520
,202.500=0.520
,218.500=0.520
,227.000=0.540
,230.000=0.520
,241.000=0.540
,244.000=0.520
,255.000=0.540
,258.000=0.520
,269.000=0.540
,272.000=0.520
;
#BGCHANGES:;
// cache tags:
#FIRSTBEAT:8.000;
#LASTBEAT:300.000;
#SONGFILENAME:Songs/nhac/Madonna/madonna-4 minutes.sm;
#HASMUSIC:1;
#HASBANNER:1;
#MUSICLENGTH:157.657;
// end cache tags

//---------------dance-single - ----------------
#NOTES:
     dance-single:
     :
     Medium:
     1:
     0.443,0.428,0.247,0.571,0.038,360.000,39.000,90.000,0.000,0.000:
0000
0000
0000
0000
,
0000
0000
0000
0000
,
0002
0003
0020
0030
0002
0003
0200
0300
,
0020
0030
2000
3000
0020
0030
0200
0300
,
0001
0000
0000
1000
0000
0000
0010
0000
0000
0000
0100
0000
0000
0000
0000
0000
,
0001
0000
0000
0010
0000
0000
0100
0000
0000
0000
0010
0000
0000
0000
0000
0000
,
1000
0000
0000
0001
0000
0000
0010
0000
0000
0000
0100
0000
0000
0000
0000
0000
,
1000
0000
0000
0010
0000
0000
0100
0000
0000
0000
0010
0000
0000
0000
0000
0000
,
0001
0010
0000
1001
0000
1001
0000
0000
,
0001
0010
0001
0100
0001
1000
0001
0010
,
0100
0000
0020
0030
0002
0003
0200
0300
,
0002
0003
2000
3000
0020
0030
0200
0301
,
0000
1000
0010
1000
0000
1000
0010
1000
,
1000
0010
1000
0100
1000
0001
1000
0010
,
0100
0000
0020
0030
2000
3000
0200
0300
,
2000
3000
0002
0003
2000
3000
0020
0030
,
0001
0010
0001
0010
0000
0100
0000
0100
,
0100
1000
0100
0001
0100
0010
0100
1000
,
0100
0000
0000
0100
0100
1000
0100
0001
,
0100
0000
0020
0030
0002
0003
0200
0301
,
0000
1000
0010
1000
0000
0010
0010
1000
,
0010
0001
0010
0100
0010
1000
0010
0001
,
0010
0000
0010
0010
1000
0010
0001
0010
,
0100
0000
0020
0030
2000
3000
0200
0300
,
1002
0000
2000
0003
0020
3000
0200
0330
,
2001
0000
0002
3000
0020
0003
0200
0000
,
0330
0000
0001
1000
0020
0000
0200
0330
,
0001
0000
1000
0000
0001
0000
0020
0200
0000
0000
0000
0000
0000
0000
0330
0000
,
1002
0000
2000
0003
0020
3000
0200
0330
,
0000
0001
1000
0001
0020
0000
0200
0330
,
0000
0000
0001
1000
0020
0000
0200
0330
,
0001
0000
1000
0000
0001
0000
0020
0200
0000
0000
0000
0000
0000
0000
0330
0000
,
0001
0010
0001
0100
0001
1001
0000
0001
,
0020
0000
0000
0200
0000
0000
0330
0000
0000
0000
0001
0000
0010
0000
0100
0000
,
0000
2002
0000
0000
0000
3003
0000
1000
,
0010
1000
0001
0010
0001
1000
0001
0000
,
1000
0010
1000
0100
1000
1001
0000
1000
,
0020
0000
0000
0200
0000
0000
0330
0000
0000
0000
0001
0000
0010
0000
0100
0000
,
0000
2002
0000
0000
0000
3003
0000
1000
,
0010
1000
0001
0010
0001
1000
0001
0000
,
1002
0000
2000
0003
0020
3000
0200
0330
,
2001
0000
0002
3000
0020
0003
0200
0000
,
0330
0000
0001
1000
0020
0000
0200
0330
,
0001
0000
1000
0000
0001
0000
0020
0200
0000
0000
0000
0000
0000
0000
0330
0000
,
1002
0000
2000
0003
0020
3000
0200
0330
,
0000
0001
1000
0001
0020
0000
0200
0330
,
0000
0000
0001
1000
0020
0000
0200
0330
,
0001
0000
1000
0000
0001
0000
0020
0200
0000
0000
0000
0000
0000
0000
0330
0000
,
0001
0010
0001
0100
0001
1001
0000
0001
,
0020
0000
0000
0200
0000
0000
0330
0000
0000
0000
0001
0000
0010
0000
0100
0000
,
0000
2002
0000
0000
0000
3003
0000
1000
,
0010
1000
0001
0010
0001
1000
0001
0000
,
1000
0010
1000
0100
1000
1001
0000
1000
,
0020
0000
0000
0200
0000
0000
0330
0000
0000
0000
0001
0000
0010
0000
0100
0000
,
0000
2002
0000
0000
0000
3003
0000
1000
,
0010
1000
0001
0010
0001
1000
0001
0000
,
0011
0000
1010
0000
0000
0100
0010
0000
,
0001
1000
0000
0100
0010
0000
1010
0000
,
1001
0000
0011
1000
0010
1000
0001
0010
,
0001
1000
0001
0000
0101
0000
1100
0000
,
0000
0100
0010
0000
0001
1000
0000
0100
,
0010
0000
1100
0000
1001
0000
0101
1000
,
0010
1000
0001
0010
0001
1000
0001
0000
,
1100
0000
0001
0100
0000
0100
0010
0000
,
0001
0010
0000
0100
0010
0000
1010
0000
,
1001
0000
0011
1000
0010
1000
0001
0010
,
0001
1000
0001
0000
1001
0000
0001
0100
,
0000
0100
0010
0000
1000
0100
0000
0100
,
0010
0000
1100
0000
1001
0000
0101
1000
,
0010
1000
0001
0010
0001
1000
0001
0000
,
1010
0011
0101
1100
,
1000
0010
1000
0001
,
0010
0001
2002
0000
,
0000
0000
0000
0000
,
0000
0000
0000
0000
,
3003
0000
0000
0000
;

//---------------dance-single - ----------------
#NOTES:
     dance-single:
     :
     Easy:
     1:
     0.347,0.428,0.311,0.672,0.000,228.000,49.000,106.000,0.000,0.000:
0000
0000
0000
0000
,
0000
0000
0000
0000
,
0002
0003
0020
0030
0002
0003
0200
0300
,
0020
0030
2000
3000
0020
0030
0200
0300
,
0002
0003
0020
0030
0002
0003
0200
0300
,
0020
0030
2000
3000
0020
0030
0200
0300
,
0002
0003
0020
0030
0002
0003
0200
0300
,
0020
0030
2000
3000
0020
0030
0200
0300
,
1001
0010
0100
0000
,
0001
0001
0001
0001
,
0100
0000
0020
0030
0002
0003
0200
0300
,
0002
0003
2000
3000
0020
0030
0200
0300
,
1001
0100
0010
0000
,
1000
1000
1000
1000
,
0100
0000
0020
0030
2000
3000
0200
0300
,
2000
3000
0002
0003
2000
3000
0020
0030
,
0011
1010
1001
0000
,
0100
0100
0100
0100
,
0100
0000
0100
0100
,
0100
0000
0020
0030
0002
0003
0200
0300
,
0101
1100
1001
0000
,
0010
0010
0010
0010
,
0010
0000
0010
0010
,
0010
0000
0020
0030
2000
3000
0200
0300
,
0002
0000
2000
0003
0020
3000
0200
0330
,
2000
0000
0002
3000
0020
0003
0200
0000
,
0330
0000
0000
0000
0002
0000
2000
3003
,
0220
0000
0000
0000
0000
0000
0000
0330
,
0002
0000
2000
0003
0020
3000
0200
0330
,
0000
0000
0000
0000
0002
0000
2000
3003
,
0000
0000
0000
0000
0020
0000
0200
0330
,
0220
0000
0000
0000
0000
0000
0000
0330
,
0001
0001
0001
0001
,
0220
0000
0000
0330
0000
0000
1001
0000
,
2002
0000
0000
0000
0000
3003
0000
0000
,
1000
0010
0001
1001
,
1000
1000
1000
1000
,
0220
0000
0000
0330
0000
0000
1001
0000
,
2002
0000
0000
0000
0000
3003
0000
0000
,
1000
0010
0001
1001
,
0002
0000
2000
0003
0020
3000
0200
0330
,
2000
0000
0002
3000
0020
0003
0200
0000
,
0330
0000
0000
0000
0002
0000
2000
3003
,
0220
0000
0000
0000
0000
0000
0000
0330
,
0002
0000
2000
0003
0020
3000
0200
0330
,
0000
0000
0000
0000
0002
0000
2000
3003
,
0000
0000
0000
0000
0020
0000
0200
0330
,
0220
0000
0000
0000
0000
0000
0000
0330
,
0001
0001
0001
0001
,
0220
0000
0000
0330
0000
0000
1001
0000
,
2002
0000
0000
0000
0000
3003
0000
0000
,
1000
0010
0001
1001
,
1000
1000
1000
1000
,
0220
0000
0000
0330
0000
0000
1001
0000
,
2002
0000
0000
0000
0000
3003
0000
0000
,
1000
0010
0001
1001
,
0011
0000
1010
0000
0000
0001
0100
0000
,
1001
0000
0000
1000
0100
0000
0011
0000
,
1010
1001
1000
0010
,
0001
1001
0101
1100
,
0000
0001
0100
0000
1001
0000
0000
1000
,
0100
1100
0101
1001
,
1000
0010
0001
1001
,
0001
0000
0010
0000
0000
0100
0010
0000
,
0001
0000
0000
0100
0010
0000
0110
0000
,
1001
0000
1000
0010
,
0001
1001
1000
0100
,
0000
0010
0100
0000
1000
0000
0000
0010
,
0100
0110
1001
0000
,
1000
0010
0001
1001
,
0001
0010
0100
1000
,
1000
0000
0010
0000
,
0001
0000
2002
0000
,
0000
0000
0000
0000
,
0000
0000
0000
0000
,
3003
0000
0000
0000
;

//---------------dance-single - Copied from----------------
#NOTES:
     dance-single:
     Copied from:
     Beginner:
     1:
     0.138,0.167,0.121,0.063,0.000,123.000,19.000,10.000,0.000,0.000:
0000
0000
0000
0000
,
0000
0000
0000
0000
,
0001
0000
0001
0000
,
0010
0000
0010
0000
,
1000
0000
1000
0000
,
0010
0000
0010
0000
,
0001
0000
1000
0000
,
0010
0000
0010
0000
,
1001
0000
0000
0000
,
0001
0000
0001
0000
,
0001
0000
1000
0000
,
0010
0000
0010
0000
,
1001
0000
0000
0000
,
1000
0000
1000
0000
,
0001
0000
1000
0000
,
0010
0000
0010
0000
,
0001
0000
0001
0000
,
0100
0000
0100
0000
,
0100
0000
0100
0000
,
0100
0000
0001
0000
,
0001
0000
0001
0000
,
0010
0000
0010
0000
,
0010
0000
0010
0000
,
0010
0000
0001
0000
,
0001
0000
0010
0000
,
1000
0000
0010
0000
,
0001
0000
0001
0000
,
0110
0000
0000
0000
,
0001
0000
1000
0000
,
0001
0000
1000
0000
,
0010
0000
0100
0000
,
0110
0000
0000
0000
,
0001
0000
1000
0000
,
0110
0000
0000
0000
,
2002
0000
0000
0000
0000
3003
0000
0000
,
1000
0000
0001
0000
,
1000
0000
1000
0000
,
0110
0000
0000
0000
,
2002
0000
0000
0000
0000
3003
0000
0000
,
1000
0000
0001
0000
,
0001
0000
0010
0000
,
1000
0000
0010
0000
,
0001
0000
0001
0000
,
0110
0000
0000
0000
,
0001
0000
1000
0000
,
0001
0000
1000
0000
,
0010
0000
0100
0000
,
0110
0000
0000
0000
,
0001
0000
1000
0000
,
0110
0000
0000
0000
,
2002
0000
0000
0000
0000
3003
0000
0000
,
1000
0000
0001
0000
,
1000
0000
1000
0000
,
0110
0000
0000
0000
,
2002
0000
0000
0000
0000
3003
0000
0000
,
1000
0000
0001
0000
,
0001
0000
1000
0000
,
0000
0001
0000
0000
,
1001
0000
1000
0000
,
1000
0000
1000
0000
,
0001
0000
0000
1000
,
0000
0000
1001
0000
,
1000
0000
0001
0000
,
0010
0000
0010
0000
,
0000
0100
0000
0000
,
0110
0000
1000
0000
,
0001
0000
0100
0000
,
0100
0000
0000
0010
,
0000
0000
0110
0000
,
1000
0000
0001
0000
,
0010
0000
0100
0000
,
0001
0000
0000
0000
,
1000
0000
2002
0000
,
0000
0000
0000
0000
,
0000
0000
0000
0000
,
3003
0000
0000
0000
;
